Тайна пиратских сокровищ / Piratskattens hemlighet / Сезон: 1 / Серии: 1-24 из 24 (Anna Zackrisson / Анна Закриссон) [2014, Швеция, семейный, HDTVRip] MVO (Игмар)

Ответить на тему
Статистика раздачи [Обновить пиров]
Размер:  4.41 GB   |    Зарегистрирован:  7 месяцев 3 дня   |    Скачан:  0 раз

Полного источника не было: Никогда

 
   
 
 
 
Автор Сообщение

chi5o.com

Создавать темы 18-Июн-2018 23:49

[Цитировать]

Тайна пиратских сокровищ / Piratskattens hemlighet Год выхода: 2014
Страна: Швеция
Жанр: семейный
Продолжительность: ~ 00:13:00
Перевод: Профессиональный (многоголосый закадровый) | Игмар
Режиссёр: Anna Zackrisson / Анна Закриссон
В ролях: Александра Бреши, Бастер Иситт, Лиа Стоянов, Аманда Оомс, Анагил дe Meло Нашименто, Мирья Турестедт, Питер Эггерс, Михалис Куцогианнакис, Гёран Энгман, Кристоффер Нурденрут
Описание: Сэм и Минна вместе со своей мамой Евой собираются праздновать Рождество с родственниками — тётей Анной и её дочерью Бьянкой. Семейство отправляется на побережье Орхидей. Во время прогулки дети видят обломки старого корабля, выброшенные на берег. Старый Иво рассказывает Сэму, Минне и Бьянке, что в давние времена недалеко от берега здесь затонул корабль пиратов, на борту которого были сокровища…
[url=tracker.php?nm=Piratskattens%20hemlighet]Ссылка на предыдущие и альтернативные раздачи[/url]

Сэмпл: http://multi-up.com/1169563
Качество: HDTVRip
Формат файла: AVI
Видео: 720x400 (16:9), 25 fps, XviD, 1891 Кбит/сек avg, 0.263 bit/pixel
Аудио: [Русский] AC3, 48 kHz, 2 ch, 192 kbps
Субтитры: отсутствуют
Реклама: отсутствует

MediaInfo

Общее
Полное имя : D:\Тайна пиратских сокровищ (HDTVRIp)\Тайна пиратских сокровищ (01 серия).avi
Формат файла : AVI
Формат файла/Информация : Audio Video Interleave
Размер файла : 188 Мбайт
Продолжительность : 12 м.
Общий поток : 2092 Кбит/сек
Программа кодирования : VirtualDubMod 1.5.10.3 | www.virtualdub-fr.org || (build 2550/release)
Библиотека кодирования : VirtualDubMod build 2550/release
Видео
Идентификатор : 0
Формат файла : MPEG-4 Visual
Профиль формата : Advanced Simple@L5
Параметр BVOP формата : 1
Параметр QPel формата : Нет
Параметр GMC формата : Без точки перехода
Параметр матрицы формата : Default (MPEG)
Идентификатор кодека : XVID
Идентификатор кодека/Подсказка : XviD
Продолжительность : 12 м.
Битрейт : 1891 Кбит/сек
Ширина : 720 пикселей
Высота : 400 пикселей
Соотношение сторон : 16:9
Частота кадров : 25,000 кадров/сек
Цветовое пространство : YUV
Субдискретизация насыщенности : 4:2:0
Битовая глубина : 8 бит
Тип развёртки : Прогрессивная
Метод сжатия : С потерями
Бит/(Пиксели*Кадры) : 0.263
Размер потока : 170 Мбайт (90%)
Библиотека кодирования : XviD 1.2.1 (UTC 2008-12-04)
Аудио
Идентификатор : 1
Формат файла : AC-3
Формат файла/Информация : Audio Coding 3
Расширение режима : CM (complete main)
Параметр Endianness формата : Big
Идентификатор кодека : 2000
Продолжительность : 12 м.
Вид битрейта : Постоянный
Битрейт : 192 Кбит/сек
Каналы : 2 канала
Расположение каналов : Front: L R
Частота : 48,0 КГц
Битовая глубина : 16 бит
Метод сжатия : С потерями
Размер потока : 17,3 Мбайт (9%)
Выравнивание : Разделение по промежуткам
Продолжительность промежутка : 40 мс. (1,00 видеокадр)
Время предзагрузки промежутка : 500 мс.

Скриншоты меню

Скриншоты



[chi5o.com]_t_5457506.torrent
Торрент: Зарегистрирован ·  [ 2018-06-18 23:48 ] ·  783374ec458ccda968de0dcadba3d8d3d15746a0

25 KB

Статус: проверено
Скачан: 0 раз
Размер: 4.41 GB
Оценка: 
(Голосов: 0)
Сказали спасибо: 0  Спасибо
Похожие темы
[Профиль]    [ЛС]
Показать сообщения:    
Ответить на тему

Текущее время: Сегодня 11:23

Часовой пояс: GMT + 7



Вы не можете начинать темы
Вы не можете отвечать на сообщения
Вы не можете редактировать свои сообщения
Вы не можете удалять свои сообщения
Вы не можете голосовать в опросах
Вы не можете прикреплять файлы к сообщениям
Вы можете скачивать файлы


Drawing Pencil Automatic Clutch Mechanical Pencil 2.0 mm + 12 Leads Pen Set | Sylvie Testud | └ DVDs & Movies