Внешность убийцы / Tappajan nakoinen mies / Look of a Killer / Красавец-убийца / Сезон: 1 / Серии: 1-8 из 8 (Лаури Нурксе / Lauri Nurkse) [2011, Финляндия, криминал, драма, триллер, DVDRip-AVC] Original + Sub (rus - porcellus, eng)

Ответить на тему
Статистика раздачи [Обновить пиров]
Размер:  3.5 GB   |    Зарегистрирован:  7 месяцев 3 дня   |    Скачан:  0 раз

Полного источника не было: Никогда

 
   
 
 
 
Автор Сообщение

chi5o.com

Создавать темы 18-Июн-2018 23:49

[Цитировать]

Внешность убийцы / Tappajan näköinen mies / Look of a Killer
Год выхода: 2011
Страна: Финляндия
Жанр: криминал, драма, триллер
Продолжительность: ~00:42:00
Перевод: cубтитры porcellus
Режиссёр: Лаури Нурксе / Lauri Nurkse
В ролях: Самули Эдельманн, Мартти Суосало, Марья Юлипяа, Вилле Хаапасало, Катья Куккола, Сеса Лехто, Евгений Хаукка, Ниило Сювяоя, Виено Сааристо, Ярмо Хюттинен
Описание: Ингерманландец Виктор Кярппа чувствует себя в Финляндии русским, в России финном. Волею судеб оказавшись в Хельсинки, он пытается вести дела в соответствии со своими представлениями о моральном долге и чести, основанными на боевом братстве бывших спецназовцев в Афгане и прошедшими закалку в лихие 90-е. Он пользуется уважением среди авторитетных теневых кругов Хельсинки, Петербурга и родной Сортавалы, водит знакомство со специалистами по щепетильным вопросам из российского посольства, а эксцентричный полицейский Теппо Корхонен считает его своим лучшим другом, что, правда, не мешает ему периодически грозиться засадить Виктора за решетку. Благодаря особенностям своего характера, нетерпимому отношению к несправедливости и весьма неоднозначному бэкграунду, Виктор Кяррпа постоянно оказывается в центре противостояния бандитов, полиции и спецслужб, что негативно влияет на развитие его отношений со студенткой Марьей, мимолетное знакомство с которой стало поворотным моментом в жизни главного героя. С честью выйти из сложных ситуаций ему помогает выдержка, умение быстро принимать решения и самые неожиданные связи, часть которых тянется в далекое прошлое, а другая возникает буквально по ходу действия.
Доп. информация: В продолжение сериала, в 2016 году вышел полнометражный фильм Сувениры из Москвы / Подарок из Москвы / Tappajan näköinen mies / The Look of a Killer.
Забавный факт: уважаемый сайт Кинопоиск, продолжая традицию "умри, но дай фильму русское название, пусть даже безумное", поднатужился и выдал "Красавец-убийца". Поскольку данное название не отражает глубинного замысла авторов, и попросту является безграмотным переводом, я счел необходимым поставить в заголовок корректное наименование.
[url=tracker.php?nm=Tappajan+nakoinen+mies]Все раздачи сериала[/url]
Сэмпл: http://multi-up.com/1172823
Качество: DVDRip
Формат файла: MKV
Видео: AVC; 716x572 (16:9); 1386 Kbps; 25 fps; 0,135 bpp
Аудио: финский-русский; AC3; 192 Kbps; CBR; 2 ch; 48.0 KHz
Субтитры: русские (porcellus); английские
Реклама: отсутствует

Список серий

Сериал разбит на четыре части по две серии, каждая часть имеет название и законченный сюжет.
1-2 серия: "Человек из-за границы"
3-4 серия: "Хороший брат, плохой брат"
5-6 серия: "Далекие друзья"
7-8 серия: "Отец, сын и злой дух"

MediaInfo

GeneralUnique ID : 236091636482224431468750051067839345647 (0xB19D986120AD2420B4381BE7682773EF)Complete name : H:\Mule\new\Tappajan.Nakoinen.Mies.S01\Tappajan.Nakoinen.Mies.S01.E08.mkvFormat : MatroskaFormat version : Version 2File size : 479 MiBDuration : 41 min 34 sOverall bit rate : 1 610 kb/sEncoded date : UTC 2017-10-20 13:24:46 / UTC 2016-07-24T16:45:07ZWriting application : mkvmerge v4.8.0 ('I Got The...') сборка от May 24 2011 03:12:58Writing library : libebml v1.2.0 + libmatroska v1.1.0 / Lavf56.1.0
VideoID : 1Format : AVCFormat/Info : Advanced Video CodecFormat profile : High@L4.1Format settings, CABAC : YesFormat settings, ReFrames : 6 framesCodec ID : V_MPEG4/ISO/AVCDuration : 41 min 34 sBit rate : 1 386 kb/sWidth : 716 pixelsHeight : 572 pixelsDisplay aspect ratio : 16:9Frame rate mode : ConstantFrame rate : 25.000 FPSColor space : YUVChroma subsampling : 4:2:0Bit depth : 8 bitsScan type : ProgressiveBits/(Pixel*Frame) : 0.135Stream size : 412 MiB (86%)Writing library : x264 core 148 r2665 a01e339Encoding settings : cabac=1 / ref=6 / deblock=1:-3:-3 / analyse=0x3:0x133 / me=umh / subme=9 / psy=1 / psy_rd=1.00:0.15 / mixed_ref=1 / me_range=32 / chroma_me=1 / trellis=2 / 8x8dct=1 / cqm=0 / deadzone=21,11 / fast_pskip=1 / chroma_qp_offset=-3 / threads=6 / lookahead_threads=1 / sliced_threads=0 / nr=0 / decimate=1 / interlaced=0 / bluray_compat=0 / constrained_intra=0 / bframes=5 / b_pyramid=2 / b_adapt=2 / b_bias=0 / direct=3 / weightb=1 / open_gop=0 / weightp=2 / keyint=250 / keyint_min=25 / scenecut=40 / intra_refresh=0 / rc_lookahead=60 / rc=crf / mbtree=1 / crf=20.0 / qcomp=0.60 / qpmin=0 / qpmax=69 / qpstep=4 / vbv_maxrate=62500 / vbv_bufsize=78125 / crf_max=0.0 / nal_hrd=none / filler=0 / ip_ratio=1.40 / aq=1:1.00Default : YesForced : NoColor range : LimitedColor primaries : BT.601 PALTransfer characteristics : BT.709Matrix coefficients : BT.601
AudioID : 2Format : AC-3Format/Info : Audio Coding 3Mode extension : CM (complete main)Format settings, Endianness : BigCodec ID : A_AC3Duration : 41 min 34 sBit rate mode : ConstantBit rate : 192 kb/sChannel(s) : 2 channelsChannel positions : Front: L RSampling rate : 48.0 kHzFrame rate : 31.250 FPS (1536 spf)Bit depth : 16 bitsCompression mode : LossyStream size : 57.1 MiB (12%)Title : StereoLanguage : FinnishDefault : YesForced : No
Text #1ID : 3Format : UTF-8Codec ID : S_TEXT/UTF8Codec ID/Info : UTF-8 Plain TextLanguage : EnglishDefault : NoForced : No
Text #2ID : 4Format : UTF-8Codec ID : S_TEXT/UTF8Codec ID/Info : UTF-8 Plain TextLanguage : RussianDefault : YesForced : Yes
Menu00:00:00.000 : :Chapter 100:10:38.480 : :Chapter 200:21:34.280 : :Chapter 300:31:02.280 : :Chapter 400:40:37.600 : :Chapter 5

Скриншоты




[chi5o.com]_t_5468852.torrent
Торрент: Зарегистрирован ·  [ 2018-06-18 23:48 ] ·  99416d687923e401a38ad8cb581d8371489a9a8d

18 KB

Статус: проверено
Скачан: 0 раз
Размер: 3.5 GB
Оценка: 
(Голосов: 0)
Сказали спасибо: 0  Спасибо
Похожие темы
[Профиль]    [ЛС]
Показать сообщения:    
Ответить на тему

Текущее время: Сегодня 11:26

Часовой пояс: GMT + 7



Вы не можете начинать темы
Вы не можете отвечать на сообщения
Вы не можете редактировать свои сообщения
Вы не можете удалять свои сообщения
Вы не можете голосовать в опросах
Вы не можете прикреплять файлы к сообщениям
Вы можете скачивать файлы


HD Bharat Ane Nenu (Telugu) | Re: Life of Pi [2012] Blu-Ray 1080... | [Tushy] Whitney Wright, Maya Kendrick - Curiosity (16 01 2019) rq mp4