Наследие / Arvingerne / Сезон: 1 / Серии: 1-10 из 10 (Хейди Мария Фаисст, Еспер Кристенсен, Пернилла Аугуст) [2014, Дания, драма, HDRip] MVO (Киносерия) + Original

Ответить на тему
Статистика раздачи [Обновить пиров]
Размер:  7.29 GB   |    Зарегистрирован:  8 месяцев 23 дня   |    Скачан:  0 раз

Полного источника не было: Никогда

 
   
 
 
 
Автор Сообщение

chi5o.com

Создавать темы 23-Май-2018 22:06

[Цитировать]

Наследие / Arvingerne
Год выхода: 2014
Страна: Дания
Жанр: драма
Продолжительность: 00:55:00
Перевод: Профессиональный (многоголосый закадровый) Киносерия
Режиссёр: Хейди Мария Фаисст, Еспер Кристенсен, Пернилла Аугуст
В ролях: Трине Дюрхольм
Мария Бах Хансен
Карстен Бьорнлунн
Миккель Боэ Фёльсгор
Лене Мария Кристенсен
Тронд Эспен Сейм
Йенс Йорн Споттаг
Керстен Лефельдт
Виктор Столтенберг Нилсен
Описание: Известие о смерти известной художницы Вероники Гроннегард вновь собирает вместе ее четверых детей на живописном датском острове Фюн. Родственникам необходимо решить вопрос о разделе имущества, и вскоре выясняется, что родовое поместье Вероника завещала своей дочери Сигне, которую она в свое время отдала на воспитание в другую семью. Эта новость становится началом путешествия в мир секретов и лжи, которое переворачивает жизни героев с ног на голову. Разделенные годами и расстояниями, братья и сестры узнают много нового о себе и друг друге.
Ссылка на предыдущие и альтернативные раздачи: [url=tracker.php?g=foreign_serials&nm=Arvingerne]http://Torrentc/forum/tracker.php?g=foreign_serials...Arvingerne[/url]
Сэмпл: http://multi-up.com/1144672
Качество: HDRip
Формат файла: AVI
Видео: MPEG4, DivX 5, 720x400 (16:9), 25.000 fps, 1 482 Kbps (0.206 bit/pixel)
Аудио: AC-3, 48.0 KHz, 2 ch, 192 Kbps, CBR - русский
Аудио 2: AC-3, 48.0 KHz, 2 ch, 192 Kbps, CBR - датский
Субтитры: нет
Реклама:
нет

MediaInfo

бщее
Полное имя : M:\Arvingerne.s01e01.rus.dan.avi
Формат файла : AVI
Формат файла/Информация : Audio Video Interleave
Размер файла : 746 Мбайт
Продолжительность : 55 м.
Общий поток : 1881 Кбит/сек
Название фильма : Наследие. Сезон 1 / Arvingerne. S?son 1 (2014)
Программа кодирования : VirtualDubMod 1.5.10.2 (build 2540/release)
Библиотека кодирования : VirtualDubMod build 2540/release
Авторское право : miha2154
Видео
Идентификатор : 0
Формат файла : MPEG-4 Visual
Профиль формата : Advanced Simple@L5
Параметр BVOP формата : 1
Параметр QPel формата : Нет
Параметр GMC формата : Без точки перехода
Параметр матрицы формата : Выборочная
Идентификатор кодека : DX50
Идентификатор кодека/Подсказка : DivX 5
Продолжительность : 55 м.
Битрейт : 1482 Кбит/сек
Ширина : 720 пикселей
Высота : 400 пикселей
Соотношение сторон : 16:9
Частота кадров : 25,000 кадров/сек
Цветовое пространство : YUV
Субдискретизация насыщенности : 4:2:0
Битовая глубина : 8 бит
Тип развёртки : Прогрессивная
Метод сжатия : С потерями
Бит/(Пиксели*Кадры) : 0.206
Размер потока : 588 Мбайт (79%)
Библиотека кодирования : XviD 65
Аудио #1
Идентификатор : 1
Формат файла : AC-3
Формат файла/Информация : Audio Coding 3
Расширение режима : CM (complete main)
Параметр Endianness формата : Big
Идентификатор кодека : 2000
Продолжительность : 55 м.
Вид битрейта : Постоянный
Битрейт : 192 Кбит/сек
Каналы : 2 канала
Расположение каналов : Front: L R
Частота : 48,0 КГц
Частота кадров : 31,250 кадров/сек (1536 spf)
Метод сжатия : С потерями
Размер потока : 76,2 Мбайт (10%)
Выравнивание : Разделение по промежуткам
Продолжительность промежутка : 40 мс. (1,00 видеокадр)
Время предзагрузки промежутка : 500 мс.
Заголовок : Профессиональный (многоголосый закадровый) Киносерия
Аудио #2
Идентификатор : 2
Формат файла : AC-3
Формат файла/Информация : Audio Coding 3
Расширение режима : CM (complete main)
Параметр Endianness формата : Big
Идентификатор кодека : 2000
Продолжительность : 55 м.
Вид битрейта : Постоянный
Битрейт : 192 Кбит/сек
Каналы : 2 канала
Расположение каналов : Front: L R
Частота : 48,0 КГц
Частота кадров : 31,250 кадров/сек (1536 spf)
Метод сжатия : С потерями
Размер потока : 76,2 Мбайт (10%)
Выравнивание : Разделение по промежуткам
Продолжительность промежутка : 40 мс. (1,00 видеокадр)
Время предзагрузки промежутка : 500 мс.
Заголовок : Датский

Скриншоты




[chi5o.com]_t_5370946.torrent
Торрент: Зарегистрирован ·  [ 2018-05-23 22:06 ] ·  9061707af5255c3ef0736ebd7fb034d84a4777e1

37 KB

Статус: проверено
Скачан: 0 раз
Размер: 7.29 GB
Оценка: 
(Голосов: 0)
Сказали спасибо: 0  Спасибо
Похожие темы
[Профиль]    [ЛС]
Показать сообщения:    
Ответить на тему

Текущее время: Сегодня 16:31

Часовой пояс: GMT + 7



Вы не можете начинать темы
Вы не можете отвечать на сообщения
Вы не можете редактировать свои сообщения
Вы не можете удалять свои сообщения
Вы не можете голосовать в опросах
Вы не можете прикреплять файлы к сообщениям
Вы можете скачивать файлы


1x24 Mr. Sunshine | Fascinators | تحميل ومشاهده فيلم الغموض والاثاره Shadows on the Road 2018 720p WEB-DL مترجم