Валландер / Wallander (SE) / Сезон: 9 / Серии: 1 из 1 (Дэниэл Линд Лагерлёф) [2007, Швеция, детектив, HDTVRip] Original + Rus, Eng, Swe Subs

Ответить на тему
Статистика раздачи [Обновить пиров]
Размер:  1.1 GB   |    Зарегистрирован:  8 месяцев 26 дней   |    Скачан:  0 раз

Полного источника не было: Никогда

 
   
 
 
 
Автор Сообщение

chi5o.com

Создавать темы 25-Апр-2018 22:47

[Цитировать]

Валландер / Wallander
Год выхода: 2007
Страна: Швеция
Жанр: детектив
Продолжительность: 01:27:59
Перевод: Субтитры
Режиссёр: Дэниэл Линд Лагерлёф
В ролях: Рольф Лассгорд (Валландер), Мария Рихардсон, Керстин Андерссон, Ларс Меллин и др.
Описание: Небольшой спортивный самолёт терпит крушение в окрестностях Моссбю. Нити расследования связывают произошедшее с событиями первых дней работы Курта в полиции.
Доп. информация:
Первая экранизация бестселлеров Хеннинга Манкелля с Рольфом Лассгордом в гл. роли. Сериал снимался по мере написания книг, актёра на главную роль порекомендовал сам писатель, и в дальнейшем при написании книг представлял Валландера именно в обличье Лассгорда.
В данной раздаче последняя часть сериала "Пирамида" (Pyramiden), снятая по мотивам одноимённого сборника рассказов, и вышедшая за два года до публикации финальной книги, поэтому окончание этого сериала отличается от последующих экранизаций.
Отлично смотрится отдельно.
Ссылка на предыдущие и альтернативные раздачи:
[url=tracker.php?f=2366,864,315,189,842,819&nm=Wallander]http://Torrentc/forum/tracker.php?f=2366,864,315,189,842,819&nm=Wallander[/url]
Сэмпл видео: http://multi-up.com/1107416
Качество: HDTVRip
Формат файла: AVI
Видео: XVID, 720x404 (~16:9), 25.000 fps, 1523 Kbps
Аудио: MP3, 44.1 kHz, 2 ch, 256 Кб/сек
Субтитры: русские, английские, шведские (внешние, отдельными файлами)
Реклама: Отсутствует

Список сезонов

Сезоны очень разные по длительности и количеству серий.
1. «Убийца без лица» - Mördare utan ansikte (1994)
2. «Ищейки в Риге» - Hundarna i Riga (1995)
3. «Белая львица » - Den vita lejoninnan (1996)
4. «Ложный след» - Villospår (2001)
5. «Пятая женщина» - Den 5e kvinnan (2002)
6. «Человек, который улыбался» - Mannen som log (2003)
7. «На шаг сзади» - Steget efter (2005)
8. «Глухая стена» - Brandvägg (2006)
9. «Пирамида» - Pyramiden (2007)

Список серий этого сезона

1. Пирамида (Pyramiden)

MediaInfo

General
Complete name : E:\Wallander.s09.Rolf\Wallander.Pyramiden.avi
Format : AVI
Format/Info : Audio Video Interleave
File size : 1.10 GiB
Duration : 1h 27mn
Overall bit rate : 1 792 Kbps
Writing library : MPlayer
Video
ID : 0
Format : MPEG-4 Visual
Format profile : Simple@L1
Format settings, BVOP : No
Format settings, QPel : No
Format settings, GMC : No warppoints
Format settings, Matrix : Default (H.263)
Codec ID : DX50
Codec ID/Hint : DivX 5
Duration : 1h 27mn
Bit rate : 1 523 Kbps
Width : 720 pixels
Height : 404 pixels
Display aspect ratio : 16:9
Frame rate : 25.000 fps
Color space : YUV
Chroma subsampling : 4:2:0
Bit depth : 8 bits
Scan type : Interlaced
Scan order : Top Field First
Compression mode : Lossy
Bits/(Pixel*Frame) : 0.209
Stream size : 959 MiB (85%)
Writing library : Lavc52.0.0
Audio
ID : 1
Format : MPEG Audio
Format version : Version 1
Format profile : Layer 3
Mode : Joint stereo
Codec ID : 55
Codec ID/Hint : MP3
Duration : 1h 27mn
Bit rate mode : Constant
Bit rate : 256 Kbps
Channel(s) : 2 channels
Sampling rate : 44.1 KHz
Compression mode : Lossy
Stream size : 161 MiB (14%)
Alignment : Aligned on interleaves
Interleave, duration : 26 ms (0.65 video frame)
Interleave, preload duration : 809 ms
Writing library : LAME3.97

Скриншоты



[chi5o.com]_t_5247502.torrent
Торрент: Зарегистрирован ·  [ 2018-04-25 22:46 ] ·  73825c8de399a10016ba5e4748e5674e22761e15

12 KB

Статус: проверено
Скачан: 0 раз
Размер: 1.1 GB
Оценка: 
(Голосов: 0)
Сказали спасибо: 0  Спасибо
Похожие темы
[Профиль]    [ЛС]
Показать сообщения:    
Ответить на тему

Текущее время: Сегодня 12:03

Часовой пояс: GMT + 7



Вы не можете начинать темы
Вы не можете отвечать на сообщения
Вы не можете редактировать свои сообщения
Вы не можете удалять свои сообщения
Вы не можете голосовать в опросах
Вы не можете прикреплять файлы к сообщениям
Вы можете скачивать файлы


Believe it or season 06 episode 03 | 12 Bajay - Atif Aslam | Jeux PC Mini