Джентльмены и гангстеры / Gentlemen & Gangsters / Сезон: 1 / Серии: 1-4 из 4 (Микаэль Марсимаин / Mikael Marcimain) [2016, Швеция, Драма, романтика, триллер, DVDRip] Original + Rus Sub (Ali+sher)

Ответить на тему
Статистика раздачи [Обновить пиров]
Размер:  4.13 GB   |    Зарегистрирован:  9 месяцев 21 день   |    Скачан:  0 раз

Полного источника не было: Никогда

 
   
 
 
 
Автор Сообщение

chi5o.com

Создавать темы 31-Мар-2018 21:26

[Цитировать]

Джентльмены и гангстеры / Gentlemen & Gangsters-- Год выхода: 2016
Страна: Швеция
Жанр: Драма, романтика, триллер
Продолжительность: ~01:28:00
Перевод: Субтитры (Ali+sher)
Режиссёр: Микаэль Марсимаин / Mikael Marcimain
В ролях: Давид Денсик, Сверрир Гуднасон, Давид Фукамачи Регнфорс, Рут Вега Фернандез, Свен Нурдин.
Описание: Боксер и пианист Генри Морган живет в необычной квартире на улице Хурнсгатан в Стокгольме. С ним живет и брат Лео, бывший вундеркинд, философ и поэт-шестидесятник - ныне опустившийся тип. В доме происходит множество странных событий. Братья Морган, поистине, загадочные персонажи. Во всяком случае, по мнению писателя Класа Эстергрена, который появляется в удивительной квартире летом 1978 года, после того, как у него украли все, кроме печатной машинки. Поселившись в одной из комнат квартиры братьев Морган, Клас оказывается втянут в душераздирающую драму.IMDb
Cкачать cэмпл
Качество: DVDRip
Формат файла: MKV
Видео: AVC at 1584 Кбит/сек 1280 x 720 (1.778) at 25.000 fps
Аудио: AAC at 96,0 Кбит/сек 2 канала, 48,0 КГц / 24,0 КГц
Субтитры: Русские, встроенные
Реклама: Отсутствует

MediaInfo

Формат файла : Matroska
Версия формата : Version 4 / Version 2
Размер файла : 1,03 Гбайт
Продолжительность : 1 ч. 28 м.
Общий поток : 1673 Кбит/сек
Дата кодирования : UTC 2018-03-14 12:57:25
Программа кодирования : mkvmerge v20.0.0 ('I Am The Sun') 64-bit
Библиотека кодирования : libebml v1.3.5 + libmatroska v1.4.8
Видео
Идентификатор : 2
Формат файла : AVC
Формат файла/Информация : Advanced Video Codec
Профиль формата : Main@L3.1
Настройки формата : CABAC / 4 Ref Frames
Параметр CABAC формата : Да
Параметр RefFrames формата : 4 кадра
Идентификатор кодека : V_MPEG4/ISO/AVC
Продолжительность : 1 ч. 28 м.
Вид битрейта : Постоянный
Битрейт : 1584 Кбит/сек
Ширина : 1280 пикселей
Высота : 720 пикселей
Соотношение сторон : 16:9
Режим частоты кадров : Постоянный
Частота кадров : 25,000 кадров/сек
Цветовое пространство : YUV
Субдискретизация насыщенности : 4:2:0
Битовая глубина : 8 бит
Тип развёртки : Прогрессивная
Бит/(Пиксели*Кадры) : 0.069
Размер потока : 997 Мбайт (94%)
Default : Да
Forced : Нет
Цветовой диапазон : Limited
Основные цвета : BT.709
Характеристики трансфера : BT.709
Коэффициенты матрицы : BT.709
Аудио
Идентификатор : 3
Формат файла : AAC
Формат файла/Информация : Advanced Audio Codec
Профиль формата : HE-AAC / LC
Настройки формата : Implicit
Идентификатор кодека : A_AAC-2
Продолжительность : 1 ч. 28 м.
Битрейт : 96,0 Кбит/сек
Каналы : 2 канала
Расположение каналов : Front: L R
Частота : 48,0 КГц / 24,0 КГц
Частота кадров : 23,438 кадра/сек (1024 SPF)
Метод сжатия : С потерями
Задержка видео : -40 мс.
Размер потока : 59,9 Мбайт (6%)
Default : Да
Forced : Нет
Текст
Идентификатор : 1
Формат файла : UTF-8
Идентификатор кодека : S_TEXT/UTF8
Идентификатор кодека/Информация : UTF-8 Plain Text
Продолжительность : 1 ч. 27 м.
Битрейт : 89 бит/сек
ElementCount : 780
Размер потока : 57,5 Кбайт (0%)
Default : Да
Forced : Нет

Скриншоты

[url=tracker.php?g=foreign_serials&nm=Gentlemen&Gangsters]Предыдущие и альтернативные раздачи[/url]


[chi5o.com]_t_5533847.torrent
Торрент: Зарегистрирован ·  [ 2018-03-31 21:26 ] ·  886e08e0f2872190830c5cac4c7faf9ed0370b1f

11 KB

Статус: проверено
Скачан: 0 раз
Размер: 4.13 GB
Оценка: 
(Голосов: 0)
Сказали спасибо: 0  Спасибо
Похожие темы
[Профиль]    [ЛС]
Показать сообщения:    
Ответить на тему

Текущее время: Сегодня 11:29

Часовой пояс: GMT + 7



Вы не можете начинать темы
Вы не можете отвечать на сообщения
Вы не можете редактировать свои сообщения
Вы не можете удалять свои сообщения
Вы не можете голосовать в опросах
Вы не можете прикреплять файлы к сообщениям
Вы можете скачивать файлы


妖怪ロマンス~百鬼夜行の物語~ FightSong Inc. जल्द आ रहा है | SD Movies Point | Hot Sale Puff Sleeve Crop T-Shirt