Мост / Bron / Broen / Сезон: 4 / Серии: 1-8 из 8 (Хенрик Георгссон, Румле Хаммерих, Шарлотта Зилинг) [2018, Швеция, Дания, Германия, триллер, криминал, детектив, HDTVRip] MVO (Amedia) + Original + Subs Rus

Ответить на тему
Статистика раздачи [Обновить пиров]
Размер:  5.75 GB   |    Зарегистрирован:  10 месяцев 21 день   |    Скачан:  0 раз

Полного источника не было: Никогда

 
   
 
 
 
Автор Сообщение

chi5o.com

Создавать темы 28-Фев-2018 19:31

[Цитировать]

Мост / Bron / Broen- Год выхода: 2018
Страна: Швеция, Дания, Германия
Жанр: триллер, криминал, детектив
Продолжительность: ~00:57:00-Перевод: Профессиональный (многоголосый закадровый) | Amedia-Режиссёр: Хенрик Георгссон, Румле Хаммерих, Шарлотта Зилинг
В ролях: София Хелин, Ким Бодния, Даг Малмберг, Пак Шарбау, Эмиль Бирк Хартманн, Рафаэль Петтерссон, Анетте Линдбэк, Сэйд Лиг, Кристина Бранден, Сара Боберг
Описание: Мост, 4 сезон, как и все предыдущие, также начнется со страшного убийства. Создатели обещают, что это преступление будет не таким значимым событием для общественности, зато само убийство станет более жутким и ужасным. Случится же новое страшное убийство на Хэллоуин, на датской стороне Эресуннского моста. Все потому, что этот праздник нечисти очень популярен именно в Дании. Создатели сериала раз за разом возвращают зрителей в это место, потому что считают его поистине мрачным.-[url=tracker.php?g=foreign_serials&nm=Bron%20%2F%20Broen]Ссылка на предыдущие и альтернативные раздачи[/url]- -Качество: HDTVRip
Формат файла: AVI
Видео: 720x400, 25.000 fps, ~1500 kbps, 0.211 bit/pixel
Аудио Русский: MP3, 48,0 kHz, 2 ch, 128 kbps | Amedia
Аудио Датский: MP3, 48,0 kHz, 2 ch, 128 kbps
Субтитры: Русские
Реклама: Отсутствует-

✘ ✘

Рип: DriverV
-

Скриншоты

-

MediaInfo

ОбщееПолное имя : D:\Мост (сезон 4) Bron (2018) HDTVRip - Amedia\Bron.S04E01.HDTVRip.Rus.Dan.DV.Amedia.aviФормат файла : AVIФормат файла/Информация : Audio Video InterleaveРазмер файла : 736 МбайтПродолжительность : 57 м. 32 с.Общий поток : 1788 Кбит/секНазвание фильма : Bron.S04E01.HDTVRip.Rus.Dan.DV.Amedia / Программа кодирования : VirtualDubModRus 1.5.10.2 (build 2542/release)Библиотека кодирования : VirtualDubMod build 2542/release
ВидеоИдентификатор : 0Формат файла : MPEG-4 VisualПрофиль формата : Advanced Simple@L5Настройки формата : BVOP2Параметр BVOP формата : 2Параметр QPel формата : НетПараметр GMC формата : Без точки переходаПараметр матрицы формата : Default (H.263)Идентификатор кодека : XVIDИдентификатор кодека/Подсказка : XviDПродолжительность : 57 м. 32 с.Битрейт : 1518 Кбит/секШирина : 720 пикселейВысота : 400 пикселейСоотношение сторон : 16:9Частота кадров : 25,000 кадров/секЦветовое пространство : YUVСубдискретизация насыщенности : 4:2:0Битовая глубина : 8 битТип развёртки : ПрогрессивнаяМетод сжатия : С потерямиБит/(Пиксели*Кадры) : 0.211Размер потока : 625 Мбайт (85%)Заголовок : Rip by DriverV / Библиотека кодирования : XviD 67
Аудио #1Идентификатор : 1Формат файла : MPEG AudioВерсия формата : Version 1Профиль формата : Layer 3Настройки формата : Joint stereo / MS StereoИдентификатор кодека : 55Идентификатор кодека/Подсказка : MP3Продолжительность : 57 м. 32 с.Вид битрейта : ПостоянныйБитрейт : 128 Кбит/секКаналы : 2 каналаЧастота : 48,0 КГцМетод сжатия : С потерямиРазмер потока : 52,7 Мбайт (7%)Выравнивание : Соединение по промежуткамПродолжительность промежутка : 40 мс. (1,00 видеокадр)Время предзагрузки промежутка : 504 мс.
Аудио #2Идентификатор : 2Формат файла : MPEG AudioВерсия формата : Version 1Профиль формата : Layer 3Настройки формата : Joint stereo / MS StereoИдентификатор кодека : 55Идентификатор кодека/Подсказка : MP3Продолжительность : 57 м. 32 с.Вид битрейта : ПостоянныйБитрейт : 128 Кбит/секКаналы : 2 каналаЧастота : 48,0 КГцМетод сжатия : С потерямиРазмер потока : 52,7 Мбайт (7%)Выравнивание : Соединение по промежуткамПродолжительность промежутка : 40 мс. (1,00 видеокадр)Время предзагрузки промежутка : 504 мс.
-

Внимание! Раздача ведётся путём добавления новых серий

Внимание! Раздача ведётся путём добавления новых серий; при каждом добавлении создаётся новый торрент. Чтобы начать докачку новой серии, пользователям необходимо сделать следующее:
(1) остановить скачивание,
(2) удалить старый торрент у себя из клиента (старые серии удалять не надо),
(3) скачать новый торрент и запустить его у себя в клиенте вместо старого, при этом указать клиенту путь в старую папку куда и должно происходить скачивание новых серий.
Ваш клиент при этом должен произвести хеширование (проверку) старой папки (если не производит сам - помогите ему сделать это), и будет докачивать только те серии которых у вас ещё нет. Старые серии при этом не удаляются, а продолжают раздаваться!
Eсли вы уже удалили старые серии, то предотвратить повторную закачку старых серий можно, отжав галочку в соответствующих местах при запуске нового торрента. По возможности, желательно не удалять старые серии как можно дольше чтобы релизёр не столько продолжал раздавать старые серии, а смог сконцентрироваться на новых.


[chi5o.com]_t_5501722.torrent
Торрент: Зарегистрирован ·  [ 2018-02-28 19:31 ] ·  bd916ad68f0e57497cec759e0aa04b0fcd368810

117 KB

Статус: проверено
Скачан: 0 раз
Размер: 5.75 GB
Оценка: 
(Голосов: 0)
Сказали спасибо: 0  Спасибо
Похожие темы
[Профиль]    [ЛС]
Показать сообщения:    
Ответить на тему

Текущее время: Сегодня 11:28

Часовой пояс: GMT + 7



Вы не можете начинать темы
Вы не можете отвечать на сообщения
Вы не можете редактировать свои сообщения
Вы не можете удалять свои сообщения
Вы не можете голосовать в опросах
Вы не можете прикреплять файлы к сообщениям
Вы можете скачивать файлы


Chaowalit Teangsap | Big Man on Hip season 08 episode 10 | Ending Soon