Миллениум / Millennium / Сезон: 1 / Серии: 1-6 (Нильс Арден Оплев / Niels Arden Oplev, Даниэль Альфредсон / Daniel Alfredson) [2010, Швеция, Дания, Германия, Норвегия, Триллер, драма, BDRip] AVO (Немахов) + MVO (100ТВ) + Original + Sub Rus, Eng

Ответить на тему
Статистика раздачи [Обновить пиров]
Размер:  11.24 GB   |    Зарегистрирован:  1 год   |    Скачан:  0 раз

Полного источника не было: Никогда

 
   
 
 
 
Автор Сообщение

chi5o.com

Создавать темы 30-Янв-2018 18:49

[Цитировать]

Миллениум / Millennium
Страна: Швеция, Дания, Германия, Норвегия
Студия: Danish Filminstitute, DR, Film i Väst, Filmpool Stockholm Mälardalen, Millennium Films, Nordisk Film A/S, Nordisk Film- & TV-Fond, SVT, Swedish Film Institute, TV2 Norge, Yellow Bird Films AB, ZDF Enterprises
Жанр: Триллер, драма, криминал, детектив
Год выхода: 2010
Продолжительность: 6 х ~ 01:33:00
Перевод 1: Авторский (одноголосый закадровый) Юрий Немахов
Перевод 2: Профессиональный (многоголосый закадровый) Русский Репортаж, 100ТВ - внешняя
Субтитры: русские, английские (все - внешние)
Оригинальная аудиодорожка: шведский
Режиссер: Нильс Арден Оплев / Niels Arden Oplev, Даниэль Альфредсон / Daniel Alfredson
В ролях: Микаэл Нюквист, Нуми Рапас, Лена Эндре, Питер Абер, Свен-Бертиль Таубе, Якоб Эрикссон, Петер Андерссон, Ингвар Хирдвалль, Георги Стайков, Микке Спрайц, Марика Лагеркранц, Бьёрн Гранат, Эва Фрёлинг, Михалис Куцогианнакис, Анника Халлин, София Ледарп, Томас Колер, Давид Денсик, Гуннель Линдблум, Ясмин Гарби, Пер Оскарссон, Реубен Сальмандер, Пелле Боландер
Описание: Фильм выполнен в духе классических детективов - Агаты Кристи и Артур Конан Дойля, но снят в стиле современных остросюжетных лент, которым присущи жестокость, эротика, кровь. Расследование главных героев, журналиста Микаэля Блумквиста и хакерши Лисбет Саландер, исчезновения юной племянницы промышленного магната, которое произошло более сорока лет назад, представляет собой захватывающую головоломку, следующий ход которой практически нельзя предугадать заранее. У вас не получится проникнуться какими-то чувствами к подозреваемым в этом деле, да оно и не важно, тут интересен сам ход расследования. Добротный европейский триллер из трех частей с закрученным началом, драматичным продолжением и закономерным финалом. Юрий Немахов рекомендует к просмотру.
Дополнительная информация:
Автор релиза -
Заказ перевода у Юрия Немахова (июнь, октябрь, ноябрь 2016) - ylnian
За сборку дорог спасибо rammzez
Источник для рипа - Blu Ray (GBR) - The Girl with the Dragon Tattoo 2009 Extended 1080p GBR Blu-ray AVC DTS-HD MA 5.1
Английские субтитры и оригинальные дороги - рипнуты мной с BD
Русские субтитры взяты в сети и синхронизированы мной под BD
За запись перевода 100ТВ спасибо teftel и HPotter. Синхронизация - ylnian

Сэмпл 1: http://yadi.sk/i/iCAEC-aOub5kF
Сэмпл 2: http://yadi.sk/i/SbAW_ZzYub5hg
Сэмпл 3: http://yadi.sk/i/3fQ3Z9TWyX7R9
Сэмпл 4: http://yadi.sk/i/T0agWxukyX7SQ
Сэмпл 5: http://yadi.sk/i/DUZHHXbtyX7U6
Сэмпл 6: http://yadi.sk/i/YZU6u07UyX7Q6
Качество видео: BDRip
Формат файла: AVI
Видео: XviD, 720x400 (16:9), 23.976 fps, ~1750 kbps, ~ 0.25 bit/pixel
Аудио 1: Русский AC3, 48000 Гц, 6ch, 448 kbps - AVO - в контейнере
Аудио 2: Русский AC3, 48000 Гц, 2ch, 192 kbps - MVO (100ТВ) - внешняя
Аудио 3: Шведский AC3, 48000 Гц, 6ch, 448 kbps - внешняя
Формат файла субтитров: softsub (SRT)
Реклама: Отсутствует

MediaInfo

Общее
Полное имя : E:\Millennium.2010.BDRip-ylnian\1-2-Man.som.hatar.kvinnor.2010.BDRip-ylnian\1.avi
Формат файла : AVI
Формат файла/Информация : Audio Video Interleave
Размер файла : 1,46 Гбайт
Продолжительность : 1 ч. 33 м.
Общий поток : 2247 Кбит/сек
Программа кодирования : VirtualDubMod 1.5.10.2 (build 2540/release)
Библиотека кодирования : VirtualDubMod build 2540/release
Видео
Идентификатор : 0
Формат файла : MPEG-4 Visual
Профиль формата : Advanced Simple@L5
Параметр BVOP формата : 1
Параметр QPel формата : Нет
Параметр GMC формата : Без точки перехода
Параметр матрицы формата : Default (MPEG)
Идентификатор кодека : XVID
Идентификатор кодека/Подсказка : XviD
Продолжительность : 1 ч. 33 м.
Битрейт : 1790 Кбит/сек
Ширина : 720 пикселей
Высота : 400 пикселей
Соотношение сторон : 16:9
Частота кадров : 23,976 (24000/1001) кадра/сек
Цветовое пространство : YUV
Субдискретизация насыщенности : 4:2:0
Битовая глубина : 8 бит
Тип развёртки : Прогрессивная
Метод сжатия : С потерями
Бит/(Пиксели*Кадры) : 0.259
Размер потока : 1,16 Гбайт (80%)
Библиотека кодирования : XviD 67
Аудио
Идентификатор : 1
Формат файла : AC-3
Формат файла/Информация : Audio Coding 3
Расширение режима : CM (complete main)
Параметр Endianness формата : Big
Идентификатор кодека : 2000
Продолжительность : 1 ч. 33 м.
Вид битрейта : Постоянный
Битрейт : 448 Кбит/сек
Каналы : 6 каналов
Расположение каналов : Front: L C R, Side: L R, LFE
Частота : 48,0 КГц
Частота кадров : 31,250 кадров/сек (1536 spf)
Метод сжатия : С потерями
Размер потока : 298 Мбайт (20%)
Выравнивание : Разделение по промежуткам
Продолжительность промежутка : 42 мс. (1,00 видеокадр)
Время предзагрузки промежутка : 500 мс.
Заголовок : RUS - AVO - Nemahov
Общее
Полное имя : E:\Millennium.2010.BDRip-ylnian\1-2-Man.som.hatar.kvinnor.2010.BDRip-ylnian\1_eng.srt
Размер файла : 55,2 Кбайт
Общее
Полное имя : E:\Millennium.2010.BDRip-ylnian\1-2-Man.som.hatar.kvinnor.2010.BDRip-ylnian\1_mvo_100TV.ac3
Формат файла : AC-3
Формат файла/Информация : Audio Coding 3
Размер файла : 128 Мбайт
Продолжительность : 1 ч. 33 м.
Режим общего битрейта : Постоянный
Общий поток : 192 Кбит/сек
Аудио
Формат файла : AC-3
Формат файла/Информация : Audio Coding 3
Расширение режима : CM (complete main)
Параметр Endianness формата : Big
Продолжительность : 1 ч. 33 м.
Вид битрейта : Постоянный
Битрейт : 192 Кбит/сек
Каналы : 2 канала
Расположение каналов : Front: L R
Частота : 48,0 КГц
Частота кадров : 31,250 кадров/сек (1536 spf)
Метод сжатия : С потерями
Размер потока : 128 Мбайт (100%)
Общее
Полное имя : E:\Millennium.2010.BDRip-ylnian\1-2-Man.som.hatar.kvinnor.2010.BDRip-ylnian\1_rus.srt
Формат файла : SubRip
Размер файла : 83,5 Кбайт
Текст
Формат файла : SubRip
Метод сжатия : Без потерь
Общее
Полное имя : E:\Millennium.2010.BDRip-ylnian\1-2-Man.som.hatar.kvinnor.2010.BDRip-ylnian\1_swe.ac3
Формат файла : AC-3
Формат файла/Информация : Audio Coding 3
Размер файла : 298 Мбайт
Продолжительность : 1 ч. 33 м.
Режим общего битрейта : Постоянный
Общий поток : 448 Кбит/сек
Аудио
Формат файла : AC-3
Формат файла/Информация : Audio Coding 3
Расширение режима : CM (complete main)
Параметр Endianness формата : Big
Продолжительность : 1 ч. 33 м.
Вид битрейта : Постоянный
Битрейт : 448 Кбит/сек
Каналы : 6 каналов
Расположение каналов : Front: L C R, Side: L R, LFE
Частота : 48,0 КГц
Частота кадров : 31,250 кадров/сек (1536 spf)
Метод сжатия : С потерями
Размер потока : 298 Мбайт (100%)
Общее
Полное имя : E:\Millennium.2010.BDRip-ylnian\1-2-Man.som.hatar.kvinnor.2010.BDRip-ylnian\2.avi
Формат файла : AVI
Формат файла/Информация : Audio Video Interleave
Размер файла : 1,46 Гбайт
Продолжительность : 1 ч. 33 м.
Общий поток : 2249 Кбит/сек
Программа кодирования : VirtualDubMod 1.5.10.2 (build 2540/release)
Библиотека кодирования : VirtualDubMod build 2540/release
Видео
Идентификатор : 0
Формат файла : MPEG-4 Visual
Профиль формата : Advanced Simple@L5
Параметр BVOP формата : 1
Параметр QPel формата : Нет
Параметр GMC формата : Без точки перехода
Параметр матрицы формата : Default (MPEG)
Идентификатор кодека : XVID
Идентификатор кодека/Подсказка : XviD
Продолжительность : 1 ч. 33 м.
Битрейт : 1792 Кбит/сек
Ширина : 720 пикселей
Высота : 400 пикселей
Соотношение сторон : 16:9
Частота кадров : 23,976 (24000/1001) кадра/сек
Цветовое пространство : YUV
Субдискретизация насыщенности : 4:2:0
Битовая глубина : 8 бит
Тип развёртки : Прогрессивная
Метод сжатия : С потерями
Бит/(Пиксели*Кадры) : 0.259
Размер потока : 1,16 Гбайт (80%)
Библиотека кодирования : XviD 67
Аудио
Идентификатор : 1
Формат файла : AC-3
Формат файла/Информация : Audio Coding 3
Расширение режима : CM (complete main)
Параметр Endianness формата : Big
Идентификатор кодека : 2000
Продолжительность : 1 ч. 33 м.
Вид битрейта : Постоянный
Битрейт : 448 Кбит/сек
Каналы : 6 каналов
Расположение каналов : Front: L C R, Side: L R, LFE
Частота : 48,0 КГц
Частота кадров : 31,250 кадров/сек (1536 spf)
Метод сжатия : С потерями
Размер потока : 298 Мбайт (20%)
Выравнивание : Разделение по промежуткам
Продолжительность промежутка : 42 мс. (1,00 видеокадр)
Время предзагрузки промежутка : 500 мс.
Заголовок : RUS - AVO - Nemahov
Общее
Полное имя : E:\Millennium.2010.BDRip-ylnian\1-2-Man.som.hatar.kvinnor.2010.BDRip-ylnian\2_eng.srt
Формат файла : SubRip
Размер файла : 51,4 Кбайт
Текст
Формат файла : SubRip
Метод сжатия : Без потерь
Общее
Полное имя : E:\Millennium.2010.BDRip-ylnian\1-2-Man.som.hatar.kvinnor.2010.BDRip-ylnian\2_mvo_100TV.ac3
Формат файла : AC-3
Формат файла/Информация : Audio Coding 3
Размер файла : 128 Мбайт
Продолжительность : 1 ч. 33 м.
Режим общего битрейта : Постоянный
Общий поток : 192 Кбит/сек
Аудио
Формат файла : AC-3
Формат файла/Информация : Audio Coding 3
Расширение режима : CM (complete main)
Параметр Endianness формата : Big
Продолжительность : 1 ч. 33 м.
Вид битрейта : Постоянный
Битрейт : 192 Кбит/сек
Каналы : 2 канала
Расположение каналов : Front: L R
Частота : 48,0 КГц
Частота кадров : 31,250 кадров/сек (1536 spf)
Метод сжатия : С потерями
Размер потока : 128 Мбайт (100%)
Общее
Полное имя : E:\Millennium.2010.BDRip-ylnian\1-2-Man.som.hatar.kvinnor.2010.BDRip-ylnian\2_rus.srt
Формат файла : SubRip
Размер файла : 75,9 Кбайт
Текст
Формат файла : SubRip
Метод сжатия : Без потерь
Общее
Полное имя : E:\Millennium.2010.BDRip-ylnian\1-2-Man.som.hatar.kvinnor.2010.BDRip-ylnian\2_swe.ac3
Формат файла : AC-3
Формат файла/Информация : Audio Coding 3
Размер файла : 298 Мбайт
Продолжительность : 1 ч. 33 м.
Режим общего битрейта : Постоянный
Общий поток : 448 Кбит/сек
Аудио
Формат файла : AC-3
Формат файла/Информация : Audio Coding 3
Расширение режима : CM (complete main)
Параметр Endianness формата : Big
Продолжительность : 1 ч. 33 м.
Вид битрейта : Постоянный
Битрейт : 448 Кбит/сек
Каналы : 6 каналов
Расположение каналов : Front: L C R, Side: L R, LFE
Частота : 48,0 КГц
Частота кадров : 31,250 кадров/сек (1536 spf)
Метод сжатия : С потерями
Размер потока : 298 Мбайт (100%)
Общее
Полное имя : E:\Millennium.2010.BDRip-ylnian\3-4-Flickan.som.lekte.med.elden.2010.BDRip-ylnian\3.avi
Формат файла : AVI
Формат файла/Информация : Audio Video Interleave
Размер файла : 1,46 Гбайт
Продолжительность : 1 ч. 33 м.
Общий поток : 2237 Кбит/сек
Программа кодирования : VirtualDubMod 1.5.10.2 (build 2540/release)
Библиотека кодирования : VirtualDubMod build 2540/release
Видео
Идентификатор : 0
Формат файла : MPEG-4 Visual
Профиль формата : Advanced Simple@L5
Параметр BVOP формата : 1
Параметр QPel формата : Нет
Параметр GMC формата : Без точки перехода
Параметр матрицы формата : Default (MPEG)
Идентификатор кодека : XVID
Идентификатор кодека/Подсказка : XviD
Продолжительность : 1 ч. 33 м.
Битрейт : 1779 Кбит/сек
Ширина : 720 пикселей
Высота : 400 пикселей
Соотношение сторон : 16:9
Частота кадров : 23,976 (24000/1001) кадра/сек
Цветовое пространство : YUV
Субдискретизация насыщенности : 4:2:0
Битовая глубина : 8 бит
Тип развёртки : Прогрессивная
Метод сжатия : С потерями
Бит/(Пиксели*Кадры) : 0.258
Размер потока : 1,16 Гбайт (80%)
Библиотека кодирования : XviD 67
Аудио
Идентификатор : 1
Формат файла : AC-3
Формат файла/Информация : Audio Coding 3
Расширение режима : CM (complete main)
Параметр Endianness формата : Big
Идентификатор кодека : 2000
Продолжительность : 1 ч. 33 м.
Вид битрейта : Постоянный
Битрейт : 448 Кбит/сек
Каналы : 6 каналов
Расположение каналов : Front: L C R, Side: L R, LFE
Частота : 48,0 КГц
Частота кадров : 31,250 кадров/сек (1536 spf)
Метод сжатия : С потерями
Размер потока : 299 Мбайт (20%)
Выравнивание : Разделение по промежуткам
Продолжительность промежутка : 42 мс. (1,00 видеокадр)
Время предзагрузки промежутка : 500 мс.
Заголовок : RUS - AVO - Nemahov
Общее
Полное имя : E:\Millennium.2010.BDRip-ylnian\3-4-Flickan.som.lekte.med.elden.2010.BDRip-ylnian\3_eng.srt
Формат файла : SubRip
Размер файла : 55,6 Кбайт
Текст
Формат файла : SubRip
Метод сжатия : Без потерь
Общее
Полное имя : E:\Millennium.2010.BDRip-ylnian\3-4-Flickan.som.lekte.med.elden.2010.BDRip-ylnian\3_mvo_100TV.ac3
Формат файла : AC-3
Формат файла/Информация : Audio Coding 3
Размер файла : 128 Мбайт
Продолжительность : 1 ч. 33 м.
Режим общего битрейта : Постоянный
Общий поток : 192 Кбит/сек
Аудио
Формат файла : AC-3
Формат файла/Информация : Audio Coding 3
Расширение режима : CM (complete main)
Параметр Endianness формата : Big
Продолжительность : 1 ч. 33 м.
Вид битрейта : Постоянный
Битрейт : 192 Кбит/сек
Каналы : 2 канала
Расположение каналов : Front: L R
Частота : 48,0 КГц
Частота кадров : 31,250 кадров/сек (1536 spf)
Метод сжатия : С потерями
Размер потока : 128 Мбайт (100%)
Общее
Полное имя : E:\Millennium.2010.BDRip-ylnian\3-4-Flickan.som.lekte.med.elden.2010.BDRip-ylnian\3_rus.srt
Формат файла : SubRip
Размер файла : 83,9 Кбайт
Текст
Формат файла : SubRip
Метод сжатия : Без потерь
Общее
Полное имя : E:\Millennium.2010.BDRip-ylnian\3-4-Flickan.som.lekte.med.elden.2010.BDRip-ylnian\3_swe.ac3
Формат файла : AC-3
Формат файла/Информация : Audio Coding 3
Размер файла : 299 Мбайт
Продолжительность : 1 ч. 33 м.
Режим общего битрейта : Постоянный
Общий поток : 448 Кбит/сек
Аудио
Формат файла : AC-3
Формат файла/Информация : Audio Coding 3
Расширение режима : CM (complete main)
Параметр Endianness формата : Big
Продолжительность : 1 ч. 33 м.
Вид битрейта : Постоянный
Битрейт : 448 Кбит/сек
Каналы : 6 каналов
Расположение каналов : Front: L C R, Side: L R, LFE
Частота : 48,0 КГц
Частота кадров : 31,250 кадров/сек (1536 spf)
Метод сжатия : С потерями
Размер потока : 299 Мбайт (100%)
Общее
Полное имя : E:\Millennium.2010.BDRip-ylnian\3-4-Flickan.som.lekte.med.elden.2010.BDRip-ylnian\4.avi
Формат файла : AVI
Формат файла/Информация : Audio Video Interleave
Размер файла : 1,46 Гбайт
Продолжительность : 1 ч. 33 м.
Общий поток : 2235 Кбит/сек
Программа кодирования : VirtualDubMod 1.5.10.2 (build 2540/release)
Библиотека кодирования : VirtualDubMod build 2540/release
Видео
Идентификатор : 0
Формат файла : MPEG-4 Visual
Профиль формата : Advanced Simple@L5
Параметр BVOP формата : 1
Параметр QPel формата : Нет
Параметр GMC формата : Без точки перехода
Параметр матрицы формата : Default (MPEG)
Идентификатор кодека : XVID
Идентификатор кодека/Подсказка : XviD
Продолжительность : 1 ч. 33 м.
Битрейт : 1778 Кбит/сек
Ширина : 720 пикселей
Высота : 400 пикселей
Соотношение сторон : 16:9
Частота кадров : 23,976 (24000/1001) кадра/сек
Цветовое пространство : YUV
Субдискретизация насыщенности : 4:2:0
Битовая глубина : 8 бит
Тип развёртки : Прогрессивная
Метод сжатия : С потерями
Бит/(Пиксели*Кадры) : 0.257
Размер потока : 1,16 Гбайт (80%)
Библиотека кодирования : XviD 67
Аудио
Идентификатор : 1
Формат файла : AC-3
Формат файла/Информация : Audio Coding 3
Расширение режима : CM (complete main)
Параметр Endianness формата : Big
Идентификатор кодека : 2000
Продолжительность : 1 ч. 33 м.
Вид битрейта : Постоянный
Битрейт : 448 Кбит/сек
Каналы : 6 каналов
Расположение каналов : Front: L C R, Side: L R, LFE
Частота : 48,0 КГц
Частота кадров : 31,250 кадров/сек (1536 spf)
Метод сжатия : С потерями
Размер потока : 299 Мбайт (20%)
Выравнивание : Разделение по промежуткам
Продолжительность промежутка : 42 мс. (1,00 видеокадр)
Время предзагрузки промежутка : 500 мс.
Заголовок : RUS - AVO - Nemahov
Общее
Полное имя : E:\Millennium.2010.BDRip-ylnian\3-4-Flickan.som.lekte.med.elden.2010.BDRip-ylnian\4_eng.srt
Формат файла : SubRip
Размер файла : 50,8 Кбайт
Текст
Формат файла : SubRip
Метод сжатия : Без потерь
Общее
Полное имя : E:\Millennium.2010.BDRip-ylnian\3-4-Flickan.som.lekte.med.elden.2010.BDRip-ylnian\4_mvo_100TV.ac3
Формат файла : AC-3
Формат файла/Информация : Audio Coding 3
Размер файла : 128 Мбайт
Продолжительность : 1 ч. 33 м.
Режим общего битрейта : Постоянный
Общий поток : 192 Кбит/сек
Аудио
Формат файла : AC-3
Формат файла/Информация : Audio Coding 3
Расширение режима : CM (complete main)
Параметр Endianness формата : Big
Продолжительность : 1 ч. 33 м.
Вид битрейта : Постоянный
Битрейт : 192 Кбит/сек
Каналы : 2 канала
Расположение каналов : Front: L R
Частота : 48,0 КГц
Частота кадров : 31,250 кадров/сек (1536 spf)
Метод сжатия : С потерями
Размер потока : 128 Мбайт (100%)
Общее
Полное имя : E:\Millennium.2010.BDRip-ylnian\3-4-Flickan.som.lekte.med.elden.2010.BDRip-ylnian\4_rus.srt
Формат файла : SubRip
Размер файла : 71,7 Кбайт
Текст
Формат файла : SubRip
Метод сжатия : Без потерь
Общее
Полное имя : E:\Millennium.2010.BDRip-ylnian\3-4-Flickan.som.lekte.med.elden.2010.BDRip-ylnian\4_swe.ac3
Формат файла : AC-3
Формат файла/Информация : Audio Coding 3
Размер файла : 299 Мбайт
Продолжительность : 1 ч. 33 м.
Режим общего битрейта : Постоянный
Общий поток : 448 Кбит/сек
Аудио
Формат файла : AC-3
Формат файла/Информация : Audio Coding 3
Расширение режима : CM (complete main)
Параметр Endianness формата : Big
Продолжительность : 1 ч. 33 м.
Вид битрейта : Постоянный
Битрейт : 448 Кбит/сек
Каналы : 6 каналов
Расположение каналов : Front: L C R, Side: L R, LFE
Частота : 48,0 КГц
Частота кадров : 31,250 кадров/сек (1536 spf)
Метод сжатия : С потерями
Размер потока : 299 Мбайт (100%)
Общее
Полное имя : E:\Millennium.2010.BDRip-ylnian\5-6-Luftslottet.som.sprangdes.2010.BDRip-ylnian\5.avi
Формат файла : AVI
Формат файла/Информация : Audio Video Interleave
Размер файла : 1,46 Гбайт
Продолжительность : 1 ч. 32 м.
Общий поток : 2258 Кбит/сек
Программа кодирования : VirtualDubMod 1.5.10.2 (build 2540/release)
Библиотека кодирования : VirtualDubMod build 2540/release
Видео
Идентификатор : 0
Формат файла : MPEG-4 Visual
Профиль формата : Advanced Simple@L5
Параметр BVOP формата : 1
Параметр QPel формата : Нет
Параметр GMC формата : Без точки перехода
Параметр матрицы формата : Default (MPEG)
Идентификатор кодека : XVID
Идентификатор кодека/Подсказка : XviD
Продолжительность : 1 ч. 32 м.
Битрейт : 1800 Кбит/сек
Ширина : 720 пикселей
Высота : 400 пикселей
Соотношение сторон : 16:9
Частота кадров : 23,976 (24000/1001) кадра/сек
Цветовое пространство : YUV
Субдискретизация насыщенности : 4:2:0
Битовая глубина : 8 бит
Тип развёртки : Прогрессивная
Метод сжатия : С потерями
Бит/(Пиксели*Кадры) : 0.261
Размер потока : 1,16 Гбайт (80%)
Библиотека кодирования : XviD 67
Аудио
Идентификатор : 1
Формат файла : AC-3
Формат файла/Информация : Audio Coding 3
Расширение режима : CM (complete main)
Параметр Endianness формата : Big
Идентификатор кодека : 2000
Продолжительность : 1 ч. 32 м.
Вид битрейта : Постоянный
Битрейт : 448 Кбит/сек
Каналы : 6 каналов
Расположение каналов : Front: L C R, Side: L R, LFE
Частота : 48,0 КГц
Частота кадров : 31,250 кадров/сек (1536 spf)
Метод сжатия : С потерями
Размер потока : 296 Мбайт (20%)
Выравнивание : Разделение по промежуткам
Продолжительность промежутка : 42 мс. (1,00 видеокадр)
Время предзагрузки промежутка : 500 мс.
Заголовок : RUS - AVO - Nemahov
Общее
Полное имя : E:\Millennium.2010.BDRip-ylnian\5-6-Luftslottet.som.sprangdes.2010.BDRip-ylnian\5_eng.srt
Формат файла : SubRip
Размер файла : 72,5 Кбайт
Текст
Формат файла : SubRip
Метод сжатия : Без потерь
Общее
Полное имя : E:\Millennium.2010.BDRip-ylnian\5-6-Luftslottet.som.sprangdes.2010.BDRip-ylnian\5_mvo_100TV.ac3
Формат файла : AC-3
Формат файла/Информация : Audio Coding 3
Размер файла : 127 Мбайт
Продолжительность : 1 ч. 32 м.
Режим общего битрейта : Постоянный
Общий поток : 192 Кбит/сек
Аудио
Формат файла : AC-3
Формат файла/Информация : Audio Coding 3
Расширение режима : CM (complete main)
Параметр Endianness формата : Big
Продолжительность : 1 ч. 32 м.
Вид битрейта : Постоянный
Битрейт : 192 Кбит/сек
Каналы : 2 канала
Расположение каналов : Front: L R
Частота : 48,0 КГц
Частота кадров : 31,250 кадров/сек (1536 spf)
Метод сжатия : С потерями
Размер потока : 127 Мбайт (100%)
Общее
Полное имя : E:\Millennium.2010.BDRip-ylnian\5-6-Luftslottet.som.sprangdes.2010.BDRip-ylnian\5_rus.srt
Формат файла : SubRip
Размер файла : 104 Кбайт
Текст
Формат файла : SubRip
Метод сжатия : Без потерь
Общее
Полное имя : E:\Millennium.2010.BDRip-ylnian\5-6-Luftslottet.som.sprangdes.2010.BDRip-ylnian\5_swe.ac3
Формат файла : AC-3
Формат файла/Информация : Audio Coding 3
Размер файла : 296 Мбайт
Продолжительность : 1 ч. 32 м.
Режим общего битрейта : Постоянный
Общий поток : 448 Кбит/сек
Аудио
Формат файла : AC-3
Формат файла/Информация : Audio Coding 3
Расширение режима : CM (complete main)
Параметр Endianness формата : Big
Продолжительность : 1 ч. 32 м.
Вид битрейта : Постоянный
Битрейт : 448 Кбит/сек
Каналы : 6 каналов
Расположение каналов : Front: L C R, Side: L R, LFE
Частота : 48,0 КГц
Частота кадров : 31,250 кадров/сек (1536 spf)
Метод сжатия : С потерями
Размер потока : 296 Мбайт (100%)
Общее
Полное имя : E:\Millennium.2010.BDRip-ylnian\5-6-Luftslottet.som.sprangdes.2010.BDRip-ylnian\6.avi
Формат файла : AVI
Формат файла/Информация : Audio Video Interleave
Размер файла : 1,45 Гбайт
Продолжительность : 1 ч. 33 м.
Общий поток : 2230 Кбит/сек
Программа кодирования : VirtualDubMod 1.5.10.2 (build 2540/release)
Библиотека кодирования : VirtualDubMod build 2540/release
Видео
Идентификатор : 0
Формат файла : MPEG-4 Visual
Профиль формата : Advanced Simple@L5
Параметр BVOP формата : 1
Параметр QPel формата : Нет
Параметр GMC формата : Без точки перехода
Параметр матрицы формата : Default (MPEG)
Идентификатор кодека : XVID
Идентификатор кодека/Подсказка : XviD
Продолжительность : 1 ч. 33 м.
Битрейт : 1773 Кбит/сек
Ширина : 720 пикселей
Высота : 400 пикселей
Соотношение сторон : 16:9
Частота кадров : 23,976 (24000/1001) кадра/сек
Цветовое пространство : YUV
Субдискретизация насыщенности : 4:2:0
Битовая глубина : 8 бит
Тип развёртки : Прогрессивная
Метод сжатия : С потерями
Бит/(Пиксели*Кадры) : 0.257
Размер потока : 1,15 Гбайт (79%)
Библиотека кодирования : XviD 67
Аудио
Идентификатор : 1
Формат файла : AC-3
Формат файла/Информация : Audio Coding 3
Расширение режима : CM (complete main)
Параметр Endianness формата : Big
Идентификатор кодека : 2000
Продолжительность : 1 ч. 33 м.
Вид битрейта : Постоянный
Битрейт : 448 Кбит/сек
Каналы : 6 каналов
Расположение каналов : Front: L C R, Side: L R, LFE
Частота : 48,0 КГц
Частота кадров : 31,250 кадров/сек (1536 spf)
Метод сжатия : С потерями
Размер потока : 299 Мбайт (20%)
Выравнивание : Разделение по промежуткам
Продолжительность промежутка : 42 мс. (1,00 видеокадр)
Время предзагрузки промежутка : 500 мс.
Заголовок : RUS - AVO - Nemahov
Общее
Полное имя : E:\Millennium.2010.BDRip-ylnian\5-6-Luftslottet.som.sprangdes.2010.BDRip-ylnian\6_eng.srt
Формат файла : SubRip
Размер файла : 63,7 Кбайт
Текст
Формат файла : SubRip
Метод сжатия : Без потерь
Общее
Полное имя : E:\Millennium.2010.BDRip-ylnian\5-6-Luftslottet.som.sprangdes.2010.BDRip-ylnian\6_mvo_100TV.ac3
Формат файла : AC-3
Формат файла/Информация : Audio Coding 3
Размер файла : 128 Мбайт
Продолжительность : 1 ч. 33 м.
Режим общего битрейта : Постоянный
Общий поток : 192 Кбит/сек
Аудио
Формат файла : AC-3
Формат файла/Информация : Audio Coding 3
Расширение режима : CM (complete main)
Параметр Endianness формата : Big
Продолжительность : 1 ч. 33 м.
Вид битрейта : Постоянный
Битрейт : 192 Кбит/сек
Каналы : 2 канала
Расположение каналов : Front: L R
Частота : 48,0 КГц
Частота кадров : 31,250 кадров/сек (1536 spf)
Метод сжатия : С потерями
Размер потока : 128 Мбайт (100%)
Общее
Полное имя : E:\Millennium.2010.BDRip-ylnian\5-6-Luftslottet.som.sprangdes.2010.BDRip-ylnian\6_rus.srt
Формат файла : SubRip
Размер файла : 93,3 Кбайт
Текст
Формат файла : SubRip
Метод сжатия : Без потерь
Общее
Полное имя : E:\Millennium.2010.BDRip-ylnian\5-6-Luftslottet.som.sprangdes.2010.BDRip-ylnian\6_swe.ac3
Формат файла : AC-3
Формат файла/Информация : Audio Coding 3
Размер файла : 299 Мбайт
Продолжительность : 1 ч. 33 м.
Режим общего битрейта : Постоянный
Общий поток : 448 Кбит/сек
Аудио
Формат файла : AC-3
Формат файла/Информация : Audio Coding 3
Расширение режима : CM (complete main)
Параметр Endianness формата : Big
Продолжительность : 1 ч. 33 м.
Вид битрейта : Постоянный
Битрейт : 448 Кбит/сек
Каналы : 6 каналов
Расположение каналов : Front: L C R, Side: L R, LFE
Частота : 48,0 КГц
Частота кадров : 31,250 кадров/сек (1536 spf)
Метод сжатия : С потерями
Размер потока : 299 Мбайт (100%)

Скриншот c названием фильма



Скриншоты


[url=tracker.php?g=foreign_serials&nm=Millennium]http://Torrentc/forum/tracker.php?g=foreign_serials...Millennium[/url]


[chi5o.com]_t_5275356.torrent
Торрент: Зарегистрирован ·  [ 2018-01-30 18:49 ] ·  cb28d4e4fbb8ce9147c7a5a1770b06fe4c13f164

59 KB

Статус: проверено
Скачан: 0 раз
Размер: 11.24 GB
Оценка: 
(Голосов: 0)
Сказали спасибо: 0  Спасибо
Похожие темы
[Профиль]    [ЛС]
Показать сообщения:    
Ответить на тему

Текущее время: Сегодня 07:51

Часовой пояс: GMT + 7



Вы не можете начинать темы
Вы не можете отвечать на сообщения
Вы не можете редактировать свои сообщения
Вы не можете удалять свои сообщения
Вы не можете голосовать в опросах
Вы не можете прикреплять файлы к сообщениям
Вы можете скачивать файлы


selecionar a marca | 鈴村あいり | Não Olhe para Trás (Danny Collins) 2015