Мост / Bron / Broen / Сезон: 2 / Серии: 1-10 из 10 (Ганс Розенфельдт / Hans Rosenfeldt) [2013, Швеция, Дания, Германия, Триллер, криминал, детектив, BDRip] MVO (Amedia) + Original + Subs (Rus, Eng)

Ответить на тему
Статистика раздачи [Обновить пиров]
Размер:  10.92 GB   |    Зарегистрирован:  1 год 1 месяц   |    Скачан:  0 раз

Полного источника не было: Никогда

 
   
 
 
 
Автор Сообщение

chi5o.com

Создавать темы 17-Дек-2017 22:00

[Цитировать]

Мост / Bron/Broen -- Страна: Швеция, Дания, Германия
Жанр: Триллер, Криминал, Детектив
Год выхода: 2013
Продолжительность: 1 эпизод ~ 60 мин.
Перевод: Профессиональный (многоголосый, закадровый) |Amedia|
Оригинальная аудиодорожка: Шведская / Датская
Автор идеи: Ганс Розенфельдт / Hans Rosenfeldt
В ролях: София Хелин, Ким Бодния, Даг Малмберг, Пак Шарбау, Эмиль Бирк Хартманн, Рафаэль Петтерссон, Анетте Линдбэк, Сэйд Лиг, Кристина Бранден, Сара Боберг
О фильме: На самой середине Эресуннского моста, связывающего Швецию с Данией, происходит краткое отключение электроэнергии. Появление освещения сопровождается обнаружением незнакомого объекта: тела женщины, обращенного головой к Швеции, ногами — к Дании. Чья полиция должна руководить расследованием убийства подброшенной за несколько минут мертвой женщины?


HRIME
Сэмпл: скачать
Формат файла: AVI
Качество: BDRip (Источник: Torrentc Blu-ray Disc - CLASSiC / 1080p)
Кодек: XviD, build 67 codec
Видео: 704 x 400; 25.000 fps; 1937 kbps; 0.275 bit/pixel
Аудио #1: |RUS| AC3 Dolby Digital; 384 Kbps; 6 channels; 48 KHz
Аудио #2: |SWE| AC3 Dolby Digital; 384 Kbps; 6 channels; 48 KHz
Субтитры: Русские, Английские.
Размер: 1 эпизод ~ 1120 Mb (1/4 DVD)--

Скриншоты


Media Info

General
Complete name                  : Most.S02.E01.2013.DUAL.BDRip.XviD.AC3.-.avi
Format                         : AVI
Format/Info                    : Audio Video Interleave
File size                      : 1.09 GiB
Duration                       : 57 min 30 s
Overall bit rate               : 2 719 kb/s
Movie name                     : Bron/Broen / Episode #2.1
Director                       : HRIME
Writing application            : VirtualDubMod 1.5.10.2 (build 2542/release)
Original source form/Name      : TV Series
Copyright                      :
Comment                        : 11.08.2017
Video
ID                             : 0
Format                         : MPEG-4 Visual
Format profile                 : Advanced Simple@L5
Format settings, BVOP          : 1
Format settings, QPel          : No
Format settings, GMC           : No warppoints
Format settings, Matrix        : Custom
Codec ID                       : XVID
Codec ID/Hint                  : XviD
Duration                       : 57 min 30 s
Bit rate                       : 1 937 kb/s
Width                          : 704 pixels
Height                         : 400 pixels
Display aspect ratio           : 16:9
Frame rate                     : 25.000 FPS
Color space                    : YUV
Chroma subsampling             : 4:2:0
Bit depth                      : 8 bits
Scan type                      : Progressive
Compression mode               : Lossy
Bits/(Pixel*Frame)             : 0.275
Stream size                    : 797 MiB (71%)
Writing library                : XviD 67
Audio #1
ID                             : 1
Format                         : AC-3
Format/Info                    : Audio Coding 3
Mode extension                 : CM (complete main)
Format settings, Endianness    : Big
Codec ID                       : 2000
Duration                       : 57 min 29 s
Bit rate mode                  : Constant
Bit rate                       : 384 kb/s
Channel(s)                     : 6 channels
Channel positions              : Front: L C R, Side: L R, LFE
Sampling rate                  : 48.0 kHz
Frame rate                     : 31.250 FPS (1536 spf)
Bit depth                      : 16 bits
Compression mode               : Lossy
Stream size                    : 158 MiB (14%)
Alignment                      : Split accross interleaves
Interleave, duration           : 40  ms (1.00 video frame)
Interleave, preload duration   : 500  ms
Audio #2
ID                             : 2
Format                         : AC-3
Format/Info                    : Audio Coding 3
Mode extension                 : CM (complete main)
Format settings, Endianness    : Big
Codec ID                       : 2000
Duration                       : 57 min 30 s
Bit rate mode                  : Constant
Bit rate                       : 384 kb/s
Channel(s)                     : 6 channels
Channel positions              : Front: L C R, Side: L R, LFE
Sampling rate                  : 48.0 kHz
Frame rate                     : 31.250 FPS (1536 spf)
Bit depth                      : 16 bits
Compression mode               : Lossy
Stream size                    : 158 MiB (14%)
Alignment                      : Split accross interleaves
Interleave, duration           : 40  ms (1.00 video frame)
Interleave, preload duration   : 500  ms

Альтернативные раздачи

[url=tracker.php?f=189,2366,842,819&nm=Bron]Все раздачи сериала "Мост"[/url]
Цитата: писал(а):

  • Реклама: отсутствует


[chi5o.com]_t_5440575.torrent
Торрент: Зарегистрирован ·  [ 2017-12-17 22:00 ] ·  2abfaa441e7e6f979ee6728b79b9d52bcaa37efc

31 KB

Статус: проверено
Скачан: 0 раз
Размер: 10.92 GB
Оценка: 
(Голосов: 0)
Сказали спасибо: 0  Спасибо
Похожие темы
[Профиль]    [ЛС]
Показать сообщения:    
Ответить на тему

Текущее время: Сегодня 11:26

Часовой пояс: GMT + 7



Вы не можете начинать темы
Вы не можете отвечать на сообщения
Вы не можете редактировать свои сообщения
Вы не можете удалять свои сообщения
Вы не можете голосовать в опросах
Вы не можете прикреплять файлы к сообщениям
Вы можете скачивать файлы


Join Link Exchange | vidaXL Rollhocker Rolle Drehstuhl Arbeitsstuhl Hocker höhenverstellbar schwarz S | Conan 2018 06 06 Jodie Foster WEB x264-TBS [eztv] 19 минут