Мост / Bron / Broen / Сезон: 3 / Серии: 1-10 из 10 (Ганс Розенфельдт / Hans Rosenfeldt) [2015, Швеция, Дания, Германия, Триллер, криминал, детектив, BDRip] MVO (Amedia) + Original

Ответить на тему
Статистика раздачи [Обновить пиров]
Размер:  10.93 GB   |    Зарегистрирован:  1 год 1 месяц   |    Скачан:  0 раз
Сидеров:  5  [  0 KB/s  ]   Личеров:  3  [  0 KB/s  ]   Подробная статистика скачивающих
 
   
 
 
 
Автор Сообщение

chi5o.com

Создавать темы 17-Дек-2017 22:00

[Цитировать]

Мост / Bron/Broen -- Страна: Швеция, Дания, Германия
Жанр: Триллер, Криминал, Детектив
Год выхода: 2015
Продолжительность: 1 эпизод ~ 60 мин.
Перевод: Профессиональный (многоголосый, закадровый) |Amedia|
Оригинальная аудиодорожка: Шведская / Датская
Автор идеи: Ганс Розенфельдт / Hans Rosenfeldt
В ролях: София Хелин, Ким Бодния, Даг Малмберг, Пак Шарбау, Эмиль Бирк Хартманн, Рафаэль Петтерссон, Анетте Линдбэк, Сэйд Лиг, Кристина Бранден, Сара Боберг
О фильме: Третий сезон — неизвестный убивает, на первый взгляд, ничем не связанных людей, выставляя тела в виде инсталляций в заброшенных местах. Постепенно все жертвы связываются в запутанную сетку вокруг одного человека.


HRIME
Сэмпл: скачать
Формат файла: AVI
Качество: BDRip (Источник: Torrentc Blu-ray Disc - BDDK / 1080p)
Кодек: XviD, build 67 codec
Видео: 704 x 400; 25.000 fps; ~ 2030 kbps; 0.288 bit/pixel
Аудио #1: |RUS| AC3 Dolby Digital; 192 Kbps; 2 channels; 48 KHz
Аудио #2: |SWE| AC3 Dolby Digital; 448 Kbps; 6 channels; 48 KHz
Субтитры: Нет
Размер: 1 эпизод ~ 1120 Mb (1/4 DVD)--

Скриншоты


Media Info

General
Complete name                            : Most.S03.E01.2015.DUAL.BDRip.XviD.AC3.-.avi
Format                                   : AVI
Format/Info                              : Audio Video Interleave
File size                                : 1.09 GiB
Duration                                 : 58mn 16s
Overall bit rate                         : 2 684 Kbps
Movie name                               : Bron/Broen / Episode #3.1
Director                                 : HRIME
Writing application                      : VirtualDubMod 1.5.10.2 (build 2542/release)
Original source form/Name                : TV Series
Copyright                                :
Comment                                  : 18.11.2017
Video
ID                                       : 0
Format                                   : MPEG-4 Visual
Format profile                           : Advanced Simple@L5
Format settings, BVOP                    : 1
Format settings, QPel                    : No
Format settings, GMC                     : No warppoints
Format settings, Matrix                  : Custom
Codec ID                                 : XVID
Codec ID/Hint                            : XviD
Duration                                 : 58mn 16s
Bit rate                                 : 2 030 Kbps
Width                                    : 704 pixels
Height                                   : 400 pixels
Display aspect ratio                     : 16:9
Frame rate                               : 25.000 fps
Color space                              : YUV
Chroma subsampling                       : 4:2:0
Bit depth                                : 8 bits
Scan type                                : Progressive
Compression mode                         : Lossy
Bits/(Pixel*Frame)                       : 0.288
Stream size                              : 846 MiB (76%)
Writing library                          : XviD 67
Audio #1
ID                                       : 1
Format                                   : AC-3
Format/Info                              : Audio Coding 3
Mode extension                           : CM (complete main)
Codec ID                                 : 2000
Duration                                 : 58mn 15s
Bit rate mode                            : Constant
Bit rate                                 : 192 Kbps
Channel(s)                               : 2 channels
Channel positions                        : Front: L R
Sampling rate                            : 48.0 KHz
Bit depth                                : 16 bits
Compression mode                         : Lossy
Stream size                              : 80.0 MiB (7%)
Alignment                                : Split accross interleaves
Interleave, duration                     : 40 ms (1.00 video frame)
Interleave, preload duration             : 500 ms
Audio #2
ID                                       : 2
Format                                   : AC-3
Format/Info                              : Audio Coding 3
Mode extension                           : CM (complete main)
Codec ID                                 : 2000
Duration                                 : 58mn 16s
Bit rate mode                            : Constant
Bit rate                                 : 448 Kbps
Channel(s)                               : 6 channels
Channel positions                        : Front: L C R, Side: L R, LFE
Sampling rate                            : 48.0 KHz
Bit depth                                : 16 bits
Compression mode                         : Lossy
Stream size                              : 187 MiB (17%)
Alignment                                : Split accross interleaves
Interleave, duration                     : 40 ms (1.00 video frame)
Interleave, preload duration             : 500 ms

Альтернативные раздачи

[url=tracker.php?f=189,2366,842,819&nm=Bron]Все раздачи сериала "Мост"[/url]
Цитата: писал(а):

  • Реклама: отсутствует


[chi5o.com]_t_5483096.torrent
Торрент: Зарегистрирован ·  [ 2017-12-17 22:00 ] ·  28f8cb4cecce0ca96cd628ec5476f96773fd137d

29 KB

Статус: проверено
Скачан: 0 раз
Размер: 10.93 GB
Оценка: 
(Голосов: 0)
Сказали спасибо: 0  Спасибо
Похожие темы
[Профиль]    [ЛС]
Показать сообщения:    
Ответить на тему

Текущее время: Сегодня 11:28

Часовой пояс: GMT + 7



Вы не можете начинать темы
Вы не можете отвечать на сообщения
Вы не можете редактировать свои сообщения
Вы не можете удалять свои сообщения
Вы не можете голосовать в опросах
Вы не можете прикреплять файлы к сообщениям
Вы можете скачивать файлы


August 4, 2017 | Chú Ong Maya 2: Cuộc Chiến Ong MậtMaya The Bee: The Honey Games | Sam Page