Монстр / Monster / Сезон: 1 / Серии: 1-7 из 7 (Анне Севитски / Anne Sewitsky, Пол Якман / Pål Jackman) [2017, Норвегия, триллер, WEBRip] Dub (True Dubbing Studio) + Original

Ответить на тему
Статистика раздачи [Обновить пиров]
Размер:  5.09 GB   |    Зарегистрирован:  1 год 2 месяца   |    Скачан:  4 раза
Сидеров:  5  [  0 KB/s  ]   Подробная статистика скачивающих
 
   
 
 
 
Автор Сообщение

chi5o.com

Создавать темы 27-Ноя-2017 04:12

[Цитировать]

Монстр / Monster
Год выхода: 2017
Страна: Норвегия
Жанр: триллер
Продолжительность: 0:55:00
Перевод: Профессиональный (дублированный) True Dubbing Studio
Режиссёр: Анне Севитски / Anne Sewitsky, Пол Якман / Pål Jackman
В ролях: Наталия Осхайм
Каролин Арнцен
Агнес Борн
Ингвильд Хольте Бигднес
Гёрильд Маусет
Бьорн Моан
Якоб Офтебро
Бьорн Сундквист
Рейдар Серенсен
Анья Сайва Бонго Бьорнстад
Описание: В мрачной отдалённой местности Северной Норвегии происходит жестокое убийство, а также обнаруживаются массовые захоронения, связывающие воедино старые случаи с пропавшими без вести. Дело поручено специальному следователю Джоэлю Драйеру, прибывшему на место из южной столицы. Напарником ему становится Хедда, женщина-офицер из местной полиции. Разные характеры, методы и прошлое сразу же противопоставляют их друг другу. А когда расследование начинает выходить из-под контроля, оба детектива прибегают к сомнительным ходам, чтобы остаться в деле и защитить свои личные секреты.
Ссылка на предыдущие и альтернативные раздачи: [url=tracker.php?f=189,819,2366,842&nm=Monster]http://Torrentc/forum/tracker.php?f=189,819,2366,842&nm=Monster[/url]
Сэмпл: http://multi-up.com/1177180
Качество: WEBRip
Формат файла: AVI
Видео: MPEG4, DivX 5, 720x304 (2.35:1), 25.000 fps, 1 491 Kbps (0.273 bit/pixel)
Аудио: AC-3, 48.0 KHz, 2 ch, 192 Kbps, CBR - русский
Аудио 2: AC-3, 48.0 KHz, 2 ch, 192 Kbps, CBR - норвежский
Субтитры: нет
Реклама:
нет

MediaInfo

Общее
Полное имя : M:\Monster.S01E01.WEBRip.Rus.Nor.avi
Формат файла : AVI
Формат файла/Информация : Audio Video Interleave
Размер файла : 746 Мбайт
Продолжительность : 55 м.
Общий поток : 1890 Кбит/сек
Название фильма : Монстр. Сезон 1 / Monster. Sesong 1 (2017)
Программа кодирования : VirtualDubMod 1.5.10.2 (build 2540/release)
Библиотека кодирования : VirtualDubMod build 2540/release
Авторское право : miha2154
Видео
Идентификатор : 0
Формат файла : MPEG-4 Visual
Профиль формата : Advanced Simple@L5
Параметр BVOP формата : 1
Параметр QPel формата : Нет
Параметр GMC формата : Без точки перехода
Параметр матрицы формата : Выборочная
Идентификатор кодека : DX50
Идентификатор кодека/Подсказка : DivX 5
Продолжительность : 55 м.
Битрейт : 1491 Кбит/сек
Ширина : 720 пикселей
Высота : 304 пикселя
Соотношение сторон : 2,35:1
Частота кадров : 25,000 кадров/сек
Цветовое пространство : YUV
Субдискретизация насыщенности : 4:2:0
Битовая глубина : 8 бит
Тип развёртки : Прогрессивная
Метод сжатия : С потерями
Бит/(Пиксели*Кадры) : 0.273
Размер потока : 588 Мбайт (79%)
Библиотека кодирования : XviD 65
Аудио #1
Идентификатор : 1
Формат файла : AC-3
Формат файла/Информация : Audio Coding 3
Расширение режима : CM (complete main)
Параметр Endianness формата : Big
Идентификатор кодека : 2000
Продолжительность : 55 м.
Вид битрейта : Постоянный
Битрейт : 192 Кбит/сек
Каналы : 2 канала
Расположение каналов : Front: L R
Частота : 48,0 КГц
Частота кадров : 31,250 кадров/сек (1536 spf)
Метод сжатия : С потерями
Размер потока : 75,8 Мбайт (10%)
Выравнивание : Разделение по промежуткам
Продолжительность промежутка : 40 мс. (1,00 видеокадр)
Время предзагрузки промежутка : 500 мс.
Заголовок : Профессиональный (многоголосый закадровый) Spike
Аудио #2
Идентификатор : 2
Формат файла : AC-3
Формат файла/Информация : Audio Coding 3
Расширение режима : CM (complete main)
Параметр Endianness формата : Big
Идентификатор кодека : 2000
Продолжительность : 55 м.
Вид битрейта : Постоянный
Битрейт : 192 Кбит/сек
Каналы : 2 канала
Расположение каналов : Front: L R
Частота : 48,0 КГц
Частота кадров : 31,250 кадров/сек (1536 spf)
Метод сжатия : С потерями
Размер потока : 75,8 Мбайт (10%)
Выравнивание : Разделение по промежуткам
Продолжительность промежутка : 40 мс. (1,00 видеокадр)
Время предзагрузки промежутка : 500 мс.
Заголовок : Норвежский

Скриншоты




[chi5o.com]_t_5483392.torrent
Торрент: Зарегистрирован ·  [ 2017-11-27 04:12 ] ·  141b5f3794de9179535eab3eab7761c38360531b

26 KB

Статус: проверено
Скачан: 4 раз
Размер: 5.09 GB
Оценка: 
(Голосов: 0)
Сказали спасибо: 0  Спасибо
Похожие темы
[Профиль]    [ЛС]
Показать сообщения:    
Ответить на тему

Текущее время: Сегодня 16:32

Часовой пояс: GMT + 7



Вы не можете начинать темы
Вы не можете отвечать на сообщения
Вы не можете редактировать свои сообщения
Вы не можете удалять свои сообщения
Вы не можете голосовать в опросах
Вы не можете прикреплять файлы к сообщениям
Вы можете скачивать файлы


Simon Sez | Torrent sites | Eagles Farewell Tour Live from Melbourne (2005) 1080p BluRay x265 HEVC DTS-SARTR...