Холодное сердце / Hjerterått / Hjerteratt / Сезон: 1 / Серии: 1-8 из 8 (Grethe Bøe-Waal, Nils Gaup) [2013, Норвегия, драма, SATRip] MVO + сурдоперевод

Ответить на тему
Статистика раздачи [Обновить пиров]
Размер:  2.35 GB   |    Зарегистрирован:  1 год 3 месяца   |    Скачан:  0 раз

Полного источника не было: Никогда

 
   
 
 
 
Автор Сообщение

chi5o.com

Создавать темы 11-Ноя-2017 23:42

[Цитировать]

Холодное сердце / Hjerterått / Hjerteratt
Год выхода: 2013
Страна: Норвегия
Жанр: драма
Продолжительность: 00:24:10
Перевод: Профессиональный (многоголосый закадровый)
Режиссёр: Grethe Bøe-Waal, Nils Gaup
В ролях: Бьорн Алекс Олсен, Nils Eira, Gard Emil Elvenes, Anne Katja Gaup, Inger Caroline Gaup, Миккель Гауп, Нилс Педер Гауп, Sarakka Gaup, Sara Uhlving Hansen, Ina Marlene Hanssen
Описание: Городская девочка Аннели вынуждена переехать жить на север. Она находит хорошего друга в лице местного мальчика Исака, и вместе они обнаруживают, что арктический холод скрывает множество тайн. Практически без помощи взрослых они разгадывают тайну и раскрывают пугающую правду…
Ссылка на предыдущие и альтернативные раздачи: [url=tracker.php?nm=Hjerteratt]http://Torrentc/forum/tracker.php?nm=Hjerteratt[/url]
Сэмпл: http://multi-up.com/1128202
Качество: SATRip
Формат файла: AVI
Видео: MPEG4, DivX 5, 720x400 (16:9), 25.000 fps, 1 548 Kbps (0.215 bit/pixel)
Аудио: AC-3, 48.0 KHz, 2 ch, 192 Kbps, CBR
Субтитры: сурдопереводчик
Реклама:
нет

MediaInfo

бщее
Полное имя : M:\Hjerteratt.s01.e01.avi
Формат файла : AVI
Формат файла/Информация : Audio Video Interleave
Размер файла : 301 Мбайт
Продолжительность : 24 м.
Общий поток : 1750 Кбит/сек
Название фильма : Холодное сердце. Сезон 1 / Hjerteratt. Sesong 1 (2013)
Программа кодирования : VirtualDubMod 1.5.10.2 (build 2540/release)
Библиотека кодирования : VirtualDubMod build 2540/release
Авторское право : miha2154
Видео
Идентификатор : 0
Формат файла : MPEG-4 Visual
Профиль формата : Advanced Simple@L5
Параметр BVOP формата : 1
Параметр QPel формата : Нет
Параметр GMC формата : Без точки перехода
Параметр матрицы формата : Выборочная
Идентификатор кодека : DX50
Идентификатор кодека/Подсказка : DivX 5
Продолжительность : 24 м.
Битрейт : 1548 Кбит/сек
Ширина : 720 пикселей
Высота : 400 пикселей
Соотношение сторон : 16:9
Частота кадров : 25,000 кадров/сек
Цветовое пространство : YUV
Субдискретизация насыщенности : 4:2:0
Битовая глубина : 8 бит
Тип развёртки : Прогрессивная
Метод сжатия : С потерями
Бит/(Пиксели*Кадры) : 0.215
Размер потока : 266 Мбайт (88%)
Библиотека кодирования : XviD 65
Аудио
Идентификатор : 1
Формат файла : AC-3
Формат файла/Информация : Audio Coding 3
Расширение режима : CM (complete main)
Параметр Endianness формата : Big
Идентификатор кодека : 2000
Продолжительность : 24 м.
Вид битрейта : Постоянный
Битрейт : 192 Кбит/сек
Каналы : 2 канала
Расположение каналов : Front: L R
Частота : 48,0 КГц
Частота кадров : 31,250 кадров/сек (1536 spf)
Метод сжатия : С потерями
Размер потока : 33,0 Мбайт (11%)
Выравнивание : Разделение по промежуткам
Продолжительность промежутка : 40 мс. (1,00 видеокадр)
Время предзагрузки промежутка : 500 мс.
Заголовок : Профессиональный (многоголосый закадровый)

Скриншоты




[chi5o.com]_t_5315998.torrent
Торрент: Зарегистрирован ·  [ 2017-11-11 23:42 ] ·  553dd7618c6364fb3e798844cc2060db9cdeeb3b

13 KB

Статус: проверено
Скачан: 0 раз
Размер: 2.35 GB
Оценка: 
(Голосов: 0)
Сказали спасибо: 0  Спасибо
Похожие темы
[Профиль]    [ЛС]
Показать сообщения:    
Ответить на тему

Текущее время: Сегодня 16:40

Часовой пояс: GMT + 7



Вы не можете начинать темы
Вы не можете отвечать на сообщения
Вы не можете редактировать свои сообщения
Вы не можете удалять свои сообщения
Вы не можете голосовать в опросах
Вы не можете прикреплять файлы к сообщениям
Вы можете скачивать файлы


Download | Nenhum Comentário | Man Seeking Woman